Snake Club Revenge of the Snake Woman 2012 DVDRip dvdrip Descargar Gratis

Snake Club Revenge of the Snake Woman 2012 DVDRip dvdrip Descargar Gratis español latino, castellano, full HD, rmvb, 1 link, descarga directa, ver online, dvdrip, torrent, mf, mediafire Snake Club Revenge of the Snake Woman 2012 DVDRip x264 AAC-OFFLiNE





Código:
http://www.imdb.com/title/tt2331073/

Tagline: She will Slither into your Soul

General
Complete name : Snake Club Revenge of the Snake Woman 2012 DVDRip x264 AAC-OFFLiNE.mp4
Format : MPEG-4
Format profile : Base Media
Codec ID : isom
File size : 1.42 GiB
Duration : 1h 22mn
Overall bit rate mode : Variable
Overall bit rate : 2 472 Kbps
Encoded date : UTC 2013-06-03 21:58:01
Tagged date : UTC 2013-06-03 21:58:01

Video
ID : 1
Format : AVC
Format/Info : Advanced Video Codec
Format profile : [email protected]
Format settings, CABAC : Yes
Format settings, ReFrames : 3 frames
Codec ID : avc1
Codec ID/Info : Advanced Video Coding
Duration : 1h 22mn
Bit rate mode : Variable
Bit rate : 2 157 Kbps
Maximum bit rate : 40.0 Mbps
Width : 720 pixels
Height : 400 pixels
Display aspect ratio : 16:9
Frame rate mode : Constant
Frame rate : 25.000 fps
Color space : YUV
Chroma subsampling : 4:2:0
Bit depth : 8 bits
Scan type : Progressive
Bits/(Pixel*Frame) : 0.300
Stream size : 1.24 GiB (87%)
Writing library : x264 core 133 r2334 a3ac64b

Audio
ID : 2
Format : AAC
Format/Info : Advanced Audio Codec
Format profile : LC
Codec ID : 40
Duration : 1h 22mn
Bit rate mode : Variable
Bit rate : 310 Kbps
Maximum bit rate : 388 Kbps
Channel(s) : 6 channels
Channel positions : Front: L C R, Side: L R, LFE
Sampling rate : 48.0 KHz
Compression mode : Lossy
Stream size : 183 MiB (13%)
Language : English
Encoded date : UTC 2013-06-03 20:01:48
Tagged date : UTC 2013-06-03 21:58:38







Código:
http://***********/soamtcoc
http://***********/mjur2n36
Snake Club Revenge of the Snake Woman 2012 DVDRip dvdrip Descargar Gratis español latino, castellano, full HD, rmvb, 1 link, descarga directa, ver online, dvdrip, torrent, mf, mediafire

Descargar Gratis:

  • snake club revenge of the snake woman dvdrip latino
  • snake club revenge of the snake woman subtitulada español dvdrip
  • ver online snake club- revenge of the snake woman (2012)
  • ver gratis snake club
  • snakewoman online gratis español
  • snake woman pelicula completa en español latino
  • SNAKE CLUB REVENGE OF THE SNAKE WOMAN subtitulo español DESCARGAR
  • snake club revenge of the snake woman subtitulado español descargar
  • descargar snake woman audio latino
  • SNAKE CLUB REVENGE OF THE SNAKE WOMAN subtitulada español DESCARGAR
  • snake club revenge of the snake woman movie online
  • snake club gratis

Deja un comentario