(DVDRip) The Hangover Part III 2013 NEW AUDIO TS x264 AAC OFFLiNE descargar full HD Descargar Gratis

(DVDRip) The Hangover Part III 2013 NEW AUDIO TS x264 AAC OFFLiNE descargar full HD Descargar Gratis español latino, castellano, full HD, rmvb, 1 link, descarga directa, ver online, dvdrip, torrent, mf, mediafire The Hangover Part III 2013 NEW AUDIO TS x264 AAC-OFFLiNE





Código:
Sources: Video – cam-(dvd-r)-Greatness … Audio – Toothfairy

^^^ Notes – Ok we got given a nice source, but it had a couple of issues, perspective was wrong, it was interlaced, borders etc, so i run a custom script to fix the perspective, IVTC, cropped the borders with minimal picture loss, resized, hue, sigma, saturation, brightness, levels and sharpen. Got Nice :) Also this has NO flicker unlike the russian source thats out.

Audio Remastered By SoundFX-Thx Bro NEW high spec full line, synced and muxed to our encode, Enjoy.

I also encoded the after credit scene and placed it seperately in the folder

http://www.imdb.com/title/tt1951261/

When one of their own is kidnapped by an angry gangster, the Wolf Pack must track down Mr. Chow, who has escaped from prison and is on the run.

General
Complete name : The Hangover Part III 2013 NEW AUDIO TS x264 AAC-OFFLiNE.mp4
Format : MPEG-4
Format profile : Base Media
Codec ID : isom
File size : 1.46 GiB
Duration : 1h 34mn
Overall bit rate mode : Variable
Overall bit rate : 2 219 Kbps
Encoded date : UTC 2013-06-04 00:36:04
Tagged date : UTC 2013-06-04 00:36:04

Video
ID : 1
Format : AVC
Format/Info : Advanced Video Codec
Format profile : [email protected]
Format settings, CABAC : Yes
Format settings, ReFrames : 3 frames
Codec ID : avc1
Codec ID/Info : Advanced Video Coding
Duration : 1h 34mn
Bit rate mode : Variable
Bit rate : 2 097 Kbps
Maximum bit rate : 40.0 Mbps
Width : 720 pixels
Height : 304 pixels
Display aspect ratio : 2.35:1
Frame rate mode : Constant
Frame rate : 23.976 fps
Color space : YUV
Chroma subsampling : 4:2:0
Bit depth : 8 bits
Scan type : Progressive
Bits/(Pixel*Frame) : 0.400
Stream size : 1.38 GiB (94%)
Writing library : x264 core 133 r2334 a3ac64b

Audio
ID : 2
Format : AAC
Format/Info : Advanced Audio Codec
Format profile : LC
Codec ID : 40
Duration : 1h 34mn
Bit rate mode : Variable
Bit rate : 119 Kbps
Maximum bit rate : 146 Kbps
Channel(s) : 2 channels
Channel positions : Front: L R
Sampling rate : 44.1 KHz
Compression mode : Lossy
Stream size : 80.7 MiB (5%)
Language : English
Encoded date : UTC 2013-06-04 00:27:06
Tagged date : UTC 2013-06-04 00:38:01








Código:
http://***********/yxpyquej
http://***********/uh21ibdz
(DVDRip) The Hangover Part III 2013 NEW AUDIO TS x264 AAC OFFLiNE descargar full HD Descargar Gratis español latino, castellano, full HD, rmvb, 1 link, descarga directa, ver online, dvdrip, torrent, mf, mediafire

Descargar Gratis:

  • descargar gratis hangover 3
  • descargar the hangover part 3 latino full
  • hangover 3 latino descarga full
  • The Hangover 3 descargar gratis torrente
  • the hangover 3 dvdscr rmvb
  • the hangover part 3 (2013) online dvdscr rmvb
  • the hangover part 3 rmvb audio latino
  • the hangover part iii 1 link descargar rmvb
  • the hangover part iii rmvb identi

Deja un comentario